(Latin / Pop) [CD] VA - El Talisman Latino (În Arșița Muzicii) - 2015, FLAC (image+.cue), lossless

Страницы:  1

Ответить
Автор
Сообщение

tpsjo

Стаж: 7 лет 5 месяцев

Сообщений: 197


tpsjo · 07-Фев-16 11:27 (3 года 4 месяца назад, ред. 08-Фев-16 17:19)

El Talisman Latino (În Arșița Muzicii)
Жанр: Latin / Pop
Носитель: CD
Страна-производитель диска (релиза): România
Год издания: 2015
Издатель (лейбл): ROTON
Номер по каталогу: 5256-2
Страна исполнителя (группы): Foreign
Аудиокодек: FLAC (*.flac)
Тип рипа: image+.cue
Битрейт аудио: lossless
Продолжительность: 01:16:33
Источник (релизер): CD (my rip)
Наличие сканов в содержимом раздачи: 600dpi PNG
Треклист:

01. Rosana - El Talisman (3:36)
02. Juanes - La Comisa Negra (3:34)
03. Natalia Oreiro - Cambio Dolor (4:02)
04. Los Del Rio - Macarena (4:08)
05. Chama - El Meneaito (3:13)
06. Chayanne - Salome (4:12)
07. Azucar Moreno - Ole (4:18)
08. So Pra Contrariar - Santo Santo (4:08)
09. Elvis Crespo - Suavemente (4:25)
10. Enrique Urquijo Y Los Problemas - Maria La Portuguesa (4:43)
11. Ana Gabriel - A Pesar De Todos (3:46)
12. Selena Y Los Dinos - Como La Flor (3:01)
13. Cafe Quijano - La Lola (3:17)
14. Mana - El Rey Tiburon (4:51)
15. Olga Tanon - Bandolero (4:30)
16. Jarabe de Palo - Bonito (4:11)
17. David Bisbal - Buleria (4:36)
18. Carlos Baute - Mi Medicina (3:30)
19. Amparo Sandino - Gozate La Vida (4:32)
Лог создания рипа
Exact Audio Copy V1.0 beta 6 from 9. April 2015
EAC extraction logfile from 7. February 2016, 9:51
VA / El Talisman Latino (In Arsita Muzicii)
Used drive : ASUS DRW-1608P2 Adapter: 1 ID: 3
Read mode : Secure
Utilize accurate stream : Yes
Defeat audio cache : Yes
Make use of C2 pointers : No
Read offset correction : 48
Overread into Lead-In and Lead-Out : No
Fill up missing offset samples with silence : Yes
Delete leading and trailing silent blocks : No
Null samples used in CRC calculations : Yes
Used interface : Native Win32 interface for Win NT & 2000
Used output format : Internal WAV Routines
Sample format : 44.100 Hz; 16 Bit; Stereo
TOC of the extracted CD
Track | Start | Length | Start sector | End sector
---------------------------------------------------------
1 | 0:00.00 | 3:36.46 | 0 | 16245
2 | 3:36.46 | 3:34.25 | 16246 | 32320
3 | 7:10.71 | 4:02.38 | 32321 | 50508
4 | 11:13.34 | 4:08.60 | 50509 | 69168
5 | 15:22.19 | 3:13.05 | 69169 | 83648
6 | 18:35.24 | 4:12.72 | 83649 | 102620
7 | 22:48.21 | 4:18.61 | 102621 | 122031
8 | 27:07.07 | 4:08.60 | 122032 | 140691
9 | 31:15.67 | 4:25.27 | 140692 | 160593
10 | 35:41.19 | 4:43.52 | 160594 | 181870
11 | 40:24.71 | 3:46.41 | 181871 | 198861
12 | 44:11.37 | 3:01.60 | 198862 | 212496
13 | 47:13.22 | 3:17.44 | 212497 | 227315
14 | 50:30.66 | 4:51.51 | 227316 | 249191
15 | 55:22.42 | 4:30.11 | 249192 | 269452
16 | 59:52.53 | 4:11.45 | 269453 | 288322
17 | 64:04.23 | 4:36.60 | 288323 | 309082
18 | 68:41.08 | 3:30.65 | 309083 | 324897
19 | 72:11.73 | 4:32.65 | 324898 | 345362
Range status and errors
Selected range
Filename D:\OUTPUT FILES\VA - El Talisman Latino (In Arsita Muzicii).wav
Peak level 98.8 %
Extraction speed 7.9 X
Range quality 99.9 %
Test CRC 464CC544
Copy CRC 464CC544
Copy OK
No errors occurred
AccurateRip summary
Track 1 accurately ripped (confidence 1) [F990332C] (AR v2)
Track 2 accurately ripped (confidence 1) [6FF6F811] (AR v2)
Track 3 accurately ripped (confidence 1) [F6508C71] (AR v2)
Track 4 accurately ripped (confidence 1) [481F3CBD] (AR v2)
Track 5 accurately ripped (confidence 1) [9992057D] (AR v2)
Track 6 accurately ripped (confidence 1) [1BC8453E] (AR v2)
Track 7 accurately ripped (confidence 1) [13A7CDA9] (AR v2)
Track 8 accurately ripped (confidence 1) [90B00F3F] (AR v2)
Track 9 accurately ripped (confidence 1) [E1555D9E] (AR v2)
Track 10 accurately ripped (confidence 1) [E5AC50C6] (AR v2)
Track 11 accurately ripped (confidence 1) [26D1197F] (AR v2)
Track 12 accurately ripped (confidence 1) [29925B5D] (AR v2)
Track 13 accurately ripped (confidence 1) [FF2D5DA1] (AR v2)
Track 14 accurately ripped (confidence 1) [AE28B3DF] (AR v2)
Track 15 accurately ripped (confidence 1) [37D50798] (AR v2)
Track 16 accurately ripped (confidence 1) [9DCBCFA1] (AR v2)
Track 17 accurately ripped (confidence 1) [32274356] (AR v2)
Track 18 accurately ripped (confidence 1) [33BBEFFD] (AR v2)
Track 19 accurately ripped (confidence 1) [94863B0D] (AR v2)
All tracks accurately ripped
End of status report
---- CUETools DB Plugin V2.1.6
[CTDB TOCID: tTkEIl5Br.mjFPcwaznUg3aizTc-] found
Submit result: already submitted
Track | CTDB Status
1 | (2/2) Accurately ripped
2 | (2/2) Accurately ripped
3 | (2/2) Accurately ripped
4 | (2/2) Accurately ripped
5 | (2/2) Accurately ripped
6 | (2/2) Accurately ripped
7 | (2/2) Accurately ripped
8 | (2/2) Accurately ripped
9 | (2/2) Accurately ripped
10 | (2/2) Accurately ripped
11 | (2/2) Accurately ripped
12 | (2/2) Accurately ripped
13 | (2/2) Accurately ripped
14 | (2/2) Accurately ripped
15 | (2/2) Accurately ripped
16 | (2/2) Accurately ripped
17 | (2/2) Accurately ripped
18 | (2/2) Accurately ripped
19 | (2/2) Accurately ripped
==== Log checksum 0081E84D2C438D55F363C3D33E13B00BF4FB8D551B1060834BE76A5599A2746F ====
Содержание индексной карты (.CUE)
REM GENRE Latin
REM DATE 2015
REM DISCID 0511FC13
REM COMMENT "ExactAudioCopy v1.0b6"
PERFORMER "VA"
TITLE "El Talisman Latino (In Arsita Muzicii)"
FILE "VA - El Talisman Latino (In Arsita Muzicii).wav" WAVE
TRACK 01 AUDIO
TITLE "El Talisman"
PERFORMER "Rosana"
INDEX 01 00:00:00
TRACK 02 AUDIO
TITLE "La Comisa Negra"
PERFORMER "Juanes"
INDEX 01 03:36:46
TRACK 03 AUDIO
TITLE "Cambio Dolor"
PERFORMER "Natalia Oreiro"
INDEX 01 07:10:71
TRACK 04 AUDIO
TITLE "Macarena"
PERFORMER "Los Del Rio"
INDEX 01 11:13:34
TRACK 05 AUDIO
TITLE "El Meneaito"
PERFORMER "Chama"
INDEX 01 15:22:19
TRACK 06 AUDIO
TITLE "Salome"
PERFORMER "Chayanne"
INDEX 01 18:35:24
TRACK 07 AUDIO
TITLE "Ole"
PERFORMER "Azucar Moreno"
INDEX 01 22:48:21
TRACK 08 AUDIO
TITLE "Santo Santo"
PERFORMER "So Pra Contrariar"
INDEX 01 27:07:07
TRACK 09 AUDIO
TITLE "Suavemente"
PERFORMER "Elvis Crespo"
INDEX 01 31:15:67
TRACK 10 AUDIO
TITLE "Maria La Portuguesa"
PERFORMER "Enrique Urquijo Y Los Problemas"
INDEX 01 35:41:19
TRACK 11 AUDIO
TITLE "A Pesar De Todos"
PERFORMER "Ana Gabriel"
INDEX 01 40:24:71
TRACK 12 AUDIO
TITLE "Como La Flor"
PERFORMER "Selena Y Los Dinos"
INDEX 01 44:11:37
TRACK 13 AUDIO
TITLE "La Lola"
PERFORMER "Cafe Quijano"
INDEX 01 47:13:22
TRACK 14 AUDIO
TITLE "El Rey Tiburon"
PERFORMER "Mana"
INDEX 01 50:30:66
TRACK 15 AUDIO
TITLE "Bandolero"
PERFORMER "Olga Tanon"
INDEX 01 55:22:42
TRACK 16 AUDIO
TITLE "Bonito"
PERFORMER "Jarabe de Palo"
INDEX 01 59:52:53
TRACK 17 AUDIO
TITLE "Buleria"
PERFORMER "David Bisbal"
INDEX 01 64:04:23
TRACK 18 AUDIO
TITLE "Mi Medicina"
PERFORMER "Carlos Baute"
INDEX 01 68:41:08
TRACK 19 AUDIO
TITLE "Gozate La Vida"
PERFORMER "Amparo Sandino"
INDEX 01 72:11:73
Download
Для скачивания .torrent файлов необходима регистрация
Сайт не распространяет и не хранит электронные версии произведений, а лишь предоставляет доступ к создаваемому пользователями каталогу ссылок на торрент-файлы, которые содержат только списки хеш-сумм
[Профиль]  [ЛС] 
 
Ответить
Loading...
Error