(Freestyle) VA - Freestyle Party Vol. 16 - 2006, (NMF Records - [NMF-0694-2]), FLAC (image+.cue), lossless

Страницы:  1
Ответить
Автор
Сообщение

Gapompus

Top Seed 05* 640r

Стаж: 11 лет 5 месяцев

Сообщений: 807

Gapompus · 09-Ноя-13 20:08 (5 лет 9 месяцев назад, ред. 09-Ноя-13 20:09)

Various Artists - Freestyle Party Vol. 16
Жанр: Freestyle
Страна-производитель диска: Europe
Год издания: 2006
Издатель (лейбл): NMF Records
Номер по каталогу: NMF-0694-2
Аудиокодек: FLAC (*.flac)
Тип рипа: image+.cue
Битрейт аудио: lossless
Продолжительность: 1:08;46
Источник (релизер): Диск из личной коллекции
Наличие сканов в содержимом раздачи: да 600 dpi (*jpg)
Треклист:
01. Freestyle Project - All The Lover (5:53)
02. N.Y. City Beats - Can Not Find The Way (4:21)
03. Bubble J. Do You Think About Me (5:20)
04. Dave - Sunset Cruiser (3:25)
05. Double Effect - Take Me Higher (3:54)
06. Bubble J. - Feel Da Rhythm In Your Feet (4:15)
07. Face 2 Face - Wanna Celebrate (3:19)
08. Freestyle Project - Pack Jam (4:21)
09. Nicolai Thomas - Stay With Me (3:39)
10. The Awesome Bass - Streetstyle (4:38)
11. Bass Boys - Rock Da House (3:31)
12. Funkyblasters - Dance (3:26)
13. Simply Free - All About Love (4:03)
14. Sunseeker - Anymore (3:57)
15. Bodywork - Eletric Workout (Open Your Mind) (3:23)
16. Robotnic Beat - Open Your Mind (3:32)
17. Nicolai Thomas - Zoom It Up (3:49)
Лог создания рипа
Exact Audio Copy V0.99 prebeta 4 from 23. January 2008
Отчёт EAC об извлечении, выполненном 9. ноября 2013, 14:40
Various / Freestyle Party Vol. 16
Дисковод: Optiarc DVD RW AD-7261S Adapter: 1 ID: 1
Режим чтения : Достоверность
Использование точного потока : Да
Отключение кэша аудио : Да
Использование указателей C2 : Нет
Коррекция смещения при чтении : 48
Способность читать области Lead-in и Lead-out : Нет
Заполнение пропущенных сэмплов тишиной : Да
Удаление блоков с тишиной в начале и конце : Нет
При вычислениях CRC использовались нулевые сэмплы : Да
Интерфейс : Встроенный Win32-интерфейс для Win NT/2000
Выходной формат : Внутренние WAV-операции
Формат сэмплов : 44.100 Гц; 16 бит; стерео
TOC извлечённого CD
Трек | Старт | Длительность | Начальный сектор | Конечный сектор
---------------------------------------------------------------------
1 | 0:00.00 | 5:53.39 | 0 | 26513
2 | 5:53.39 | 4:21.48 | 26514 | 46136
3 | 10:15.12 | 5:20.49 | 46137 | 70185
4 | 15:35.61 | 3:25.66 | 70186 | 85626
5 | 19:01.52 | 3:54.19 | 85627 | 103195
6 | 22:55.71 | 4:15.69 | 103196 | 122389
7 | 27:11.65 | 3:19.27 | 122390 | 137341
8 | 30:31.17 | 4:21.44 | 137342 | 156960
9 | 34:52.61 | 3:33.16 | 156961 | 172951
10 | 38:26.02 | 4:38.19 | 172952 | 193820
11 | 43:04.21 | 3:31.51 | 193821 | 209696
12 | 46:35.72 | 3:26.30 | 209697 | 225176
13 | 50:02.27 | 4:03.07 | 225177 | 243408
14 | 54:05.34 | 3:57.34 | 243409 | 261217
15 | 58:02.68 | 3:22.44 | 261218 | 276411
16 | 61:25.37 | 3:31.28 | 276412 | 292264
17 | 64:56.65 | 3:49.43 | 292265 | 309482
Характеристики диапазона извлечения и сообщения об ошибках
Выбранный диапазон
Имя файла C:\Users\Meijin\Desktop\Новая папка (4)\Various - Freestyle Party Vol. 16.wav
Пиковый уровень 99.4 %
Качество диапазона 100.0 %
CRC теста 1494529F
CRC копии 1494529F
Копирование... OK
Ошибок не произошло
AccurateRip: сводка
Трек 1 нет в базе данных
Трек 2 нет в базе данных
Трек 3 нет в базе данных
Трек 4 нет в базе данных
Трек 5 нет в базе данных
Трек 6 нет в базе данных
Трек 7 нет в базе данных
Трек 8 нет в базе данных
Трек 9 нет в базе данных
Трек 10 нет в базе данных
Трек 11 нет в базе данных
Трек 12 нет в базе данных
Трек 13 нет в базе данных
Трек 14 нет в базе данных
Трек 15 нет в базе данных
Трек 16 нет в базе данных
Трек 17 нет в базе данных
Ни одного трека нет в базе AccurateRip
Конец отчёта
Download
Сайт не распространяет и не хранит электронные версии произведений, а лишь предоставляет доступ к создаваемому пользователями каталогу ссылок на торрент-файлы, которые содержат только списки хеш-сумм
Как скачивать? (для скачивания .torrent файлов необходима регистрация)
[Профиль]  [ЛС] 

степа.Н

Top Bonus 03* 1TB

Стаж: 12 лет 7 месяцев

Сообщений: 975

степа.Н · 10-Ноя-13 00:41 (спустя 4 часа)

Спасибо, нужно будет проверить коллекцию и обновиться на качественные версии.
[Профиль]  [ЛС] 

lavteutas

Стаж: 10 лет 9 месяцев

Сообщений: 261

lavteutas · 15-Ноя-13 01:04 (спустя 5 дней)

Gapompus
Спасибо огромное!!! Есть еще из этой серии сборники?
Иле еще что-то из фристайла?
[Профиль]  [ЛС] 

Gapompus

Top Seed 05* 640r

Стаж: 11 лет 5 месяцев

Сообщений: 807

Gapompus · 24-Ноя-13 22:25 (спустя 9 дней)

lavteutas писал(а):
61721605Gapompus
Спасибо огромное!!! Есть еще из этой серии сборники?
Иле еще что-то из фристайла?
Именно сборники этой серии разыскиваю. Как только - так сразу.
[Профиль]  [ЛС] 
 
Ответить
Loading...
Error