(Electro, Funk) Afrika Bambaataa - Zulu Groove - 1996, FLAC (tracks+.cue), lossless

Страницы:  1
Ответить
Автор
Сообщение

Аndy

Moderator

Стаж: 11 лет

Сообщений: 47041

Аndy · 02-Сен-12 21:30 (6 лет 11 месяцев назад)

Afrika Bambaataa / Zulu Groove
Жанр: Electro, Funk
Год издания: 1996
Издатель (лейбл): Hudson Vandam Records
Номер по каталогу: HVD 5103
Аудиокодек: FLAC (*.flac)
Тип рипа: tracks+.cue
Битрейт аудио: lossless
Продолжительность: 55:14
Источник (релизер): what.cd
Наличие сканов в содержимом раздачи: нет
Треклист:
01. Afrika Bambaataa - World Destruction [06:29]
02. Afrika Bambaataa - Shango Message [07:45]
03. Afrika Bambaataa - Wild Style [04:56]
04. Afrika Bambaataa - Zulu Groove [09:05]
05. Afrika Bambaataa - Thank You [07:34]
06. Afrika Bambaataa - Let's Party Down [11:18]
07. Afrika Bambaataa - Soca Fever [02:28]
08. Afrika Bambaataa - World Destruction (Meltdown Remix) [05:34]
Лог создания рипа
X Lossless Decoder version 20111015 (136.4)
XLD extraction logfile from 2011-10-29 22:22:13 +0000
Afrika Bambaataa / Zulu Groove
Used drive : HL-DT-ST DVDRW GA32N (revision KC12)
Ripper mode : XLD Secure Ripper
Disable audio cache : OK for the drive with a cache less than 1375KiB
Make use of C2 pointers : NO
Read offset correction : 103
Max retry count : 20
Gap status : Analyzed, Appended (except HTOA)
TOC of the extracted CD
Track | Start | Length | Start sector | End sector
---------------------------------------------------------
1 | 00:00:00 | 06:29:55 | 0 | 29229
2 | 06:29:55 | 07:45:67 | 29230 | 64171
3 | 14:15:47 | 04:56:45 | 64172 | 86416
4 | 19:12:17 | 09:05:58 | 86417 | 127349
5 | 28:18:00 | 07:34:39 | 127350 | 161438
6 | 35:52:39 | 11:18:72 | 161439 | 212360
7 | 47:11:36 | 02:28:18 | 212361 | 223478
8 | 49:39:54 | 05:34:32 | 223479 | 248560
List of alternate offset correction values
# | Absolute | Relative | Confidence
------------------------------------------
1 | -561 | -664 | 1
AccurateRip Summary
Track 01 : OK (confidence 1, with different offset)
Track 02 : OK (confidence 1, with different offset)
Track 03 : OK (confidence 1, with different offset)
Track 04 : OK (confidence 1, with different offset)
Track 05 : OK (confidence 1, with different offset)
Track 06 : OK (confidence 1, with different offset)
Track 07 : OK (confidence 1, with different offset)
Track 08 : OK (confidence 1, with different offset)
->All tracks accurately ripped.
All Tracks
Album gain : -1.44 dB
Peak : 1.000000
Statistics
Read error : 0
Jitter error (maybe fixed) : 0
Retry sector count : 0
Damaged sector count : 0
Track 01
Filename : /Volumes/Downloads_HD/Torrent uploads/whatcd uploads/Afrika Bambaataa - Zulu Groove/Afrika Bambaataa - Zulu Groove (1996) [FLAC]/01 World Destruction.flac
Pre-gap length : 00:02:00
Track gain : 1.38 dB
Peak : 0.787445
CRC32 hash (test run) : F974D98D
CRC32 hash : F974D98D
CRC32 hash (skip zero) : 2C0A13CC
AccurateRip signature : 780FE168
->Accurately ripped! (confidence 1)
(matched with the different offset correction value;
calculated using an additional offset of -664;
the signature after correction is: 712F0079)
Statistics
Read error : 0
Jitter error (maybe fixed) : 0
Retry sector count : 0
Damaged sector count : 0
Track 02
Filename : /Volumes/Downloads_HD/Torrent uploads/whatcd uploads/Afrika Bambaataa - Zulu Groove/Afrika Bambaataa - Zulu Groove (1996) [FLAC]/02 Shango Message.flac
Track gain : -1.98 dB
Peak : 0.999969
CRC32 hash (test run) : F7FD0D09
CRC32 hash : F7FD0D09
CRC32 hash (skip zero) : 96A0CDE1
AccurateRip signature : 4441D340
->Accurately ripped! (confidence 1)
(matched with the different offset correction value;
calculated using an additional offset of -664;
the signature after correction is: 75861AFF)
Statistics
Read error : 0
Jitter error (maybe fixed) : 0
Retry sector count : 0
Damaged sector count : 0
Track 03
Filename : /Volumes/Downloads_HD/Torrent uploads/whatcd uploads/Afrika Bambaataa - Zulu Groove/Afrika Bambaataa - Zulu Groove (1996) [FLAC]/03 Wild Style.flac
Track gain : -1.27 dB
Peak : 0.792603
CRC32 hash (test run) : 4047EF14
CRC32 hash : 4047EF14
CRC32 hash (skip zero) : D1A2C4A3
AccurateRip signature : CCACF393
->Accurately ripped! (confidence 1)
(matched with the different offset correction value;
calculated using an additional offset of -664;
the signature after correction is: 8CC2E3B0)
Statistics
Read error : 0
Jitter error (maybe fixed) : 0
Retry sector count : 0
Damaged sector count : 0
Track 04
Filename : /Volumes/Downloads_HD/Torrent uploads/whatcd uploads/Afrika Bambaataa - Zulu Groove/Afrika Bambaataa - Zulu Groove (1996) [FLAC]/04 Zulu Groove.flac
Track gain : -1.45 dB
Peak : 0.948517
CRC32 hash (test run) : FBEDFCCC
CRC32 hash : FBEDFCCC
CRC32 hash (skip zero) : D1E1E28D
AccurateRip signature : 19BC9254
->Accurately ripped! (confidence 1)
(matched with the different offset correction value;
calculated using an additional offset of -664;
the signature after correction is: 80C66573)
Statistics
Read error : 0
Jitter error (maybe fixed) : 0
Retry sector count : 0
Damaged sector count : 0
Track 05
Filename : /Volumes/Downloads_HD/Torrent uploads/whatcd uploads/Afrika Bambaataa - Zulu Groove/Afrika Bambaataa - Zulu Groove (1996) [FLAC]/05 Thank You.flac
Track gain : -1.28 dB
Peak : 1.000000
CRC32 hash (test run) : F606F4C9
CRC32 hash : F606F4C9
CRC32 hash (skip zero) : 95E7C838
AccurateRip signature : A5036DAA
->Accurately ripped! (confidence 1)
(matched with the different offset correction value;
calculated using an additional offset of -664;
the signature after correction is: CC25CD09)
Statistics
Read error : 0
Jitter error (maybe fixed) : 0
Retry sector count : 0
Damaged sector count : 0
Track 06
Filename : /Volumes/Downloads_HD/Torrent uploads/whatcd uploads/Afrika Bambaataa - Zulu Groove/Afrika Bambaataa - Zulu Groove (1996) [FLAC]/06 Let's Party Down.flac
Track gain : -1.90 dB
Peak : 0.809387
CRC32 hash (test run) : 95479F4E
CRC32 hash : 95479F4E
CRC32 hash (skip zero) : 137990BC
AccurateRip signature : B4C7AB81
->Accurately ripped! (confidence 1)
(matched with the different offset correction value;
calculated using an additional offset of -664;
the signature after correction is: D2B3ACA7)
Statistics
Read error : 0
Jitter error (maybe fixed) : 0
Retry sector count : 0
Damaged sector count : 0
Track 07
Filename : /Volumes/Downloads_HD/Torrent uploads/whatcd uploads/Afrika Bambaataa - Zulu Groove/Afrika Bambaataa - Zulu Groove (1996) [FLAC]/07 Soca Fever.flac
Track gain : -0.84 dB
Peak : 0.805359
CRC32 hash (test run) : A421F4D3
CRC32 hash : A421F4D3
CRC32 hash (skip zero) : 04AC5388
AccurateRip signature : 58D0C1C2
->Accurately ripped! (confidence 1)
(matched with the different offset correction value;
calculated using an additional offset of -664;
the signature after correction is: CED58CF0)
Statistics
Read error : 0
Jitter error (maybe fixed) : 0
Retry sector count : 0
Damaged sector count : 0
Track 08
Filename : /Volumes/Downloads_HD/Torrent uploads/whatcd uploads/Afrika Bambaataa - Zulu Groove/Afrika Bambaataa - Zulu Groove (1996) [FLAC]/08 World Destruction (Meltdown Remix).flac
Track gain : -1.83 dB
Peak : 0.821899
CRC32 hash (test run) : F82EA5A2
CRC32 hash : F82EA5A2
CRC32 hash (skip zero) : DD9F43CA
AccurateRip signature : D5984AEE
->Accurately ripped! (confidence 1)
(matched with the different offset correction value;
calculated using an additional offset of -664;
the signature after correction is: 94AF4C97)
Statistics
Read error : 0
Jitter error (maybe fixed) : 0
Retry sector count : 0
Damaged sector count : 0
No errors occurred
End of status report
Содержание индексной карты (.CUE)
TITLE "Zulu Groove"
PERFORMER "Afrika Bambaataa"
REM GENRE "Hip Hop"
REM DATE "1996"
REM DISCID 660CF208
REM REPLAYGAIN_ALBUM_GAIN -1.44 dB
REM REPLAYGAIN_ALBUM_PEAK 1.000000
FILE "01 World Destruction.flac" WAVE
TRACK 01 AUDIO
TITLE "World Destruction"
REM REPLAYGAIN_TRACK_GAIN 1.38 dB
REM REPLAYGAIN_TRACK_PEAK 0.787445
INDEX 01 00:00:00
FILE "02 Shango Message.flac" WAVE
TRACK 02 AUDIO
TITLE "Shango Message"
REM REPLAYGAIN_TRACK_GAIN -1.98 dB
REM REPLAYGAIN_TRACK_PEAK 0.999969
INDEX 01 00:00:00
FILE "03 Wild Style.flac" WAVE
TRACK 03 AUDIO
TITLE "Wild Style"
REM REPLAYGAIN_TRACK_GAIN -1.27 dB
REM REPLAYGAIN_TRACK_PEAK 0.792603
INDEX 01 00:00:00
FILE "04 Zulu Groove.flac" WAVE
TRACK 04 AUDIO
TITLE "Zulu Groove"
REM REPLAYGAIN_TRACK_GAIN -1.45 dB
REM REPLAYGAIN_TRACK_PEAK 0.948517
INDEX 01 00:00:00
FILE "05 Thank You.flac" WAVE
TRACK 05 AUDIO
TITLE "Thank You"
REM REPLAYGAIN_TRACK_GAIN -1.28 dB
REM REPLAYGAIN_TRACK_PEAK 1.000000
INDEX 01 00:00:00
FILE "06 Let's Party Down.flac" WAVE
TRACK 06 AUDIO
TITLE "Let's Party Down"
REM REPLAYGAIN_TRACK_GAIN -1.90 dB
REM REPLAYGAIN_TRACK_PEAK 0.809387
INDEX 01 00:00:00
FILE "07 Soca Fever.flac" WAVE
TRACK 07 AUDIO
TITLE "Soca Fever"
REM REPLAYGAIN_TRACK_GAIN -0.84 dB
REM REPLAYGAIN_TRACK_PEAK 0.805359
INDEX 01 00:00:00
FILE "08 World Destruction (Meltdown Remix).flac" WAVE
TRACK 08 AUDIO
TITLE "World Destruction (Meltdown Remix)"
REM REPLAYGAIN_TRACK_GAIN -1.83 dB
REM REPLAYGAIN_TRACK_PEAK 0.821899
INDEX 01 00:00:00

Download
Сайт не распространяет и не хранит электронные версии произведений, а лишь предоставляет доступ к создаваемому пользователями каталогу ссылок на торрент-файлы, которые содержат только списки хеш-сумм
Как скачивать? (для скачивания .torrent файлов необходима регистрация)
[Профиль]  [ЛС] 

Marvil

Стаж: 11 лет 7 месяцев

Сообщений: 8

Marvil · 02-Янв-14 23:00 (спустя 1 год 4 месяца)

спасибо людям, раздающим хорошую музыку. Искриние твой "Слушатель".
[Профиль]  [ЛС] 
 
Ответить
Loading...
Error