(Electro-Freestyle) VA - Freestyle Party Vol. 18 - 2006, FLAC (image+.cue), lossless

Страницы:  1
Ответить
Автор
Сообщение

audelas

Top Seed 05* 640r

Стаж: 11 лет 10 месяцев

Сообщений: 1408

audelas · 11-Ноя-11 22:13 (7 лет 9 месяцев назад, ред. 12-Ноя-11 12:54)

Freestyle Party Vol. 18
Жанр: Electro-Freestyle
Страна-производитель диска: Germany
Год издания диска: 2006
Издатель (лейбл): Manifold Records Music & Marketing
Номер по каталогу: MNF-0711-2
Страна: EU / USA
Аудиокодек: FLAC (*.flac)
Тип рипа: image+.cue
Битрейт аудио: lossless
Продолжительность: 69:05
Источник (релизер): AUDELAS KINGDOM
Наличие сканов в содержимом раздачи: да
Треклист:

01. Bass Instinct - Sin TI
02. Stylo - Revolution
03. Freestyle Project - I Am In Heaven Baby
04. L.A.Beatz - On Da Floor
05. Bubble J - Dream About Me
06. N.Y City Beats - Crying
07. Stylo - Call The Key
08. Face 2 Face - Chime Of Love
09. Dave - You Gimme Light
10. Bass Instinct - Boogie Down
11. Stylo - Get Streetwise
12. Sun Beat - Let`s Break
13. N.Y.City Beats - Believe Me
14. Smash - Fantasy
15. Sun Beat - Control Your Body
16. Stylo - Another Night
Доп. информация: http://www.youtube.com/watch?v=GBQxk_dTtfU
Лог создания рипа
Exact Audio Copy V1.0 beta 2 from 29. April 2011
EAC extraction logfile from 11. November 2011, 20:19
Various Artists / Freestyle Party Vol. 18
Used drive : _NEC DVD_RW ND-3550A Adapter: 1 ID: 0
Read mode : Secure
Utilize accurate stream : Yes
Defeat audio cache : Yes
Make use of C2 pointers : No
Read offset correction : 48
Overread into Lead-In and Lead-Out : No
Fill up missing offset samples with silence : Yes
Delete leading and trailing silent blocks : No
Null samples used in CRC calculations : Yes
Used interface : Native Win32 interface for Win NT & 2000
Used output format : User Defined Encoder
Selected bitrate : 768 kBit/s
Quality : High
Add ID3 tag : No
Command line compressor : C:\Program Files\Exact Audio Copy\FLAC\FLAC.EXE
Additional command line options : -6 -V -T "ARTIST=%artist%" -T "TITLE=%title%" -T "ALBUM=%albumtitle%" -T "DATE=%year%" -T "TRACKNUMBER=%tracknr%" -T "GENRE=%genre%" -T "COMMENT=%comment%" -T "BAND=%albuminterpret%" -T "COMPOSER=%composer%" %haslyrics%--ta
TOC of the extracted CD
Track | Start | Length | Start sector | End sector
---------------------------------------------------------
1 | 0:00.00 | 3:52.29 | 0 | 17428
2 | 3:52.29 | 4:29.21 | 17429 | 37624
3 | 8:21.50 | 4:55.59 | 37625 | 59808
4 | 13:17.34 | 4:18.14 | 59809 | 79172
5 | 17:35.48 | 5:01.47 | 79173 | 101794
6 | 22:37.20 | 4:33.16 | 101795 | 122285
7 | 27:10.36 | 4:34.08 | 122286 | 142843
8 | 31:44.44 | 3:38.14 | 142844 | 159207
9 | 35:22.58 | 3:55.60 | 159208 | 176892
10 | 39:18.43 | 3:48.00 | 176893 | 193992
11 | 43:06.43 | 4:27.74 | 193993 | 214091
12 | 47:34.42 | 3:52.51 | 214092 | 231542
13 | 51:27.18 | 4:19.30 | 231543 | 250997
14 | 55:46.48 | 3:53.57 | 250998 | 268529
15 | 59:40.30 | 3:32.19 | 268530 | 284448
16 | 63:12.49 | 4:36.49 | 284449 | 305197
Range status and errors
Selected range
Filename C:\FINISH\VA - Freestyle Party Vol. 18 (2006)\Various Artists - Freestyle Party Vol. 18.wav
Peak level 100.0 %
Extraction speed 5.4 X
Range quality 100.0 %
Test CRC 50376BBC
Copy CRC 50376BBC
Copy OK
No errors occurred
AccurateRip summary
Track 1 not present in database
Track 2 not present in database
Track 3 not present in database
Track 4 not present in database
Track 5 not present in database
Track 6 not present in database
Track 7 not present in database
Track 8 not present in database
Track 9 not present in database
Track 10 not present in database
Track 11 not present in database
Track 12 not present in database
Track 13 not present in database
Track 14 not present in database
Track 15 not present in database
Track 16 not present in database
None of the tracks are present in the AccurateRip database
End of status report
==== Log checksum 1881CA209228C7278C6D85373989A22780EE0B1EDF3BCDCF2D535FCC9A3DF590 ====
Download
Сайт не распространяет и не хранит электронные версии произведений, а лишь предоставляет доступ к создаваемому пользователями каталогу ссылок на торрент-файлы, которые содержат только списки хеш-сумм
Как скачивать? (для скачивания .torrent файлов необходима регистрация)
[Профиль]  [ЛС] 

gemi_ni

Moderator

Стаж: 10 лет 3 месяца

Сообщений: 7438

gemi_ni · 12-Ноя-11 12:37 (спустя 14 часов)

audelas писал(а):
Уберите, пожалуйста, лишний знак из оформления
[Профиль]  [ЛС] 

степа.Н

Top Bonus 03* 1TB

Стаж: 12 лет 7 месяцев

Сообщений: 975

степа.Н · 06-Дек-11 19:16 (спустя 24 дня)

Спасибо и ввсерх - ноги-руки-тело!
[Профиль]  [ЛС] 
 
Ответить
Loading...
Error