(Freestyle, Electro) B-Boy Tronik - 3 albums 2003-2004, FLAC (image+.cue), lossless

Страницы:  1
Ответить
Автор
Сообщение

mr.no

Стаж: 11 лет 4 месяца

Сообщений: 1176

mr.no · 11-Мар-10 08:37 (9 лет 5 месяцев назад)

B-Boy Tronik - Freestyle Music
Жанр: Freestyle, Electro
Год выпуска диска: 2003
Производитель диска: Russia
Аудио кодек: FLAC
Тип рипа: image+.cue
Битрейт аудио: lossless
Продолжительность: 58:41
Трэклист:
1 Do You Wanna Get Crazy 5:16
2 Stomp To My Beat 3:09
3 Freestyle Music 5:00
4 Bring That Beat Back 2:10
5 The Beat Kicks 3:42
6 Rock Da Jam 3:57
7 Breakdance 4:50
8 Beatbox (The Scratches) 14:32
9 Keep On Rockin! 3:09
10 B-Boy Tronik Anthem 3:57
11 Electro Empire 4:05
12 B-Boy Tronik Megamix # 1 4:43
Отчёт EAC
Exact Audio Copy V0.99 prebeta 5 from 4. May 2009
EAC extraction logfile from 11. March 2010, 11:38
B-Boy Tronik / Freestyle Music
Used drive : HL-DT-STDVDRAM GSA-4163B Adapter: 0 ID: 1
Read mode : Secure
Utilize accurate stream : Yes
Defeat audio cache : Yes
Make use of C2 pointers : No
Read offset correction : 667
Overread into Lead-In and Lead-Out : No
Fill up missing offset samples with silence : Yes
Delete leading and trailing silent blocks : No
Null samples used in CRC calculations : Yes
Used interface : Native Win32 interface for Win NT & 2000
Used output format : User Defined Encoder
Selected bitrate : 32 kBit/s
Quality : High
Add ID3 tag : No
Command line compressor : C:\Program Files\Exact Audio Copy\FLAC\FLAC.EXE
Additional command line options : -8 -V -T "ARTIST=%a" -T "TITLE=%t" -T "ALBUM=%g" -T "DATE=%y" -T "TRACKNUMBER=%n" -T "GENRE=%m" -T "COMMENT=%e" %s -o %d
TOC of the extracted CD
Track | Start | Length | Start sector | End sector
---------------------------------------------------------
1 | 0:00.00 | 3:09.70 | 0 | 14244
2 | 3:09.70 | 3:57.58 | 14245 | 32077
3 | 7:07.53 | 4:05.35 | 32078 | 50487
4 | 11:13.13 | 4:43.55 | 50488 | 71767
5 | 15:56.68 | 5:16.61 | 71768 | 95528
6 | 21:13.54 | 3:10.08 | 95529 | 109786
7 | 24:23.62 | 5:00.52 | 109787 | 132338
8 | 29:24.39 | 2:11.01 | 132339 | 142164
9 | 31:35.40 | 3:42.65 | 142165 | 158879
10 | 35:18.30 | 3:58.00 | 158880 | 176729
11 | 39:16.30 | 4:50.62 | 176730 | 198541
12 | 44:07.17 | 14:34.05 | 198542 | 264096
Range status and errors
Selected range
Filename M:\Music\новая папка\B-Boy Tronik - Freestyle Music.wav
Peak level 92.4 %
Range quality 100.0 %
Test CRC CFBA0341
Copy CRC CFBA0341
Copy OK
No errors occurred
AccurateRip summary
Track 1 not present in database
Track 2 not present in database
Track 3 not present in database
Track 4 not present in database
Track 5 not present in database
Track 6 not present in database
Track 7 not present in database
Track 8 not present in database
Track 9 not present in database
Track 10 not present in database
Track 11 not present in database
Track 12 not present in database
None of the tracks are present in the AccurateRip database
End of status report
B-Boy Tronik - Rock Your Body
Жанр: Freestyle, Electro
Год выпуска диска: 2003
Производитель диска: Russia
Аудио кодек: FLAC
Тип рипа: image+.cue
Битрейт аудио: lossless
Продолжительность: 60:06
Трэклист:
1 Clubbin' In The Night 4:05
2 Feel The Music 3:34
3 Rock Your Body 4:08
4 Phatmatik 3:46
5 Type Of Girl 3:27
6 Diver (Electro Mix) 5:05
7 Northern Radiance 6:00
8 Mekanik 1:42
9 Hit The Dancefloor 3:30
10 Party Freaks 3:47
11 Northern Radiance (Remix) 4:56
12 Feel The Music (Remix) 5:40
13 Let's Break 3:18
14 B-Boy Tronik Megamix # 2 (De Luxe 2003 Version) 6:55
Отчёт EAC
Exact Audio Copy V0.99 prebeta 5 from 4. May 2009
EAC extraction logfile from 11. March 2010, 12:03
B-Boy Tronik / Rock Your Body (2003)
Used drive : HL-DT-STDVDRAM GSA-4163B Adapter: 0 ID: 1
Read mode : Secure
Utilize accurate stream : Yes
Defeat audio cache : Yes
Make use of C2 pointers : No
Read offset correction : 667
Overread into Lead-In and Lead-Out : No
Fill up missing offset samples with silence : Yes
Delete leading and trailing silent blocks : No
Null samples used in CRC calculations : Yes
Used interface : Native Win32 interface for Win NT & 2000
Used output format : User Defined Encoder
Selected bitrate : 32 kBit/s
Quality : High
Add ID3 tag : No
Command line compressor : C:\Program Files\Exact Audio Copy\FLAC\FLAC.EXE
Additional command line options : -8 -V -T "ARTIST=%a" -T "TITLE=%t" -T "ALBUM=%g" -T "DATE=%y" -T "TRACKNUMBER=%n" -T "GENRE=%m" -T "COMMENT=%e" %s -o %d
TOC of the extracted CD
Track | Start | Length | Start sector | End sector
---------------------------------------------------------
1 | 0:00.00 | 4:05.66 | 0 | 18440
2 | 4:05.66 | 3:34.42 | 18441 | 34532
3 | 7:40.33 | 4:09.02 | 34533 | 53209
4 | 11:49.35 | 3:47.09 | 53210 | 70243
5 | 15:36.44 | 3:27.62 | 70244 | 85830
6 | 19:04.31 | 5:05.39 | 85831 | 108744
7 | 24:09.70 | 6:00.58 | 108745 | 135802
8 | 30:10.53 | 1:42.44 | 135803 | 143496
9 | 31:53.22 | 3:31.10 | 143497 | 159331
10 | 35:24.32 | 3:48.21 | 159332 | 176452
11 | 39:12.53 | 4:56.64 | 176453 | 198716
12 | 44:09.42 | 5:41.32 | 198717 | 224323
13 | 49:50.74 | 3:18.46 | 224324 | 239219
14 | 53:09.45 | 6:56.35 | 239220 | 270454
Range status and errors
Selected range
Filename M:\Music\новая папка\B-Boy Tronik - Rock Your Body (2003).wav
Peak level 100.0 %
Range quality 99.9 %
Test CRC 9761D80E
Copy CRC 9761D80E
Copy OK
No errors occurred
AccurateRip summary
Track 1 not present in database
Track 2 not present in database
Track 3 not present in database
Track 4 not present in database
Track 5 not present in database
Track 6 not present in database
Track 7 not present in database
Track 8 not present in database
Track 9 not present in database
Track 10 not present in database
Track 11 not present in database
Track 12 not present in database
Track 13 not present in database
Track 14 not present in database
None of the tracks are present in the AccurateRip database
End of status report
B-Boy Tronik - I Am Your DJ
Жанр: Freestyle, Electro
Год выпуска диска: 2004
Производитель диска: Russia
Аудио кодек: FLAC
Тип рипа: image+.cue
Битрейт аудио: lossless
Продолжительность: 61:32
Трэклист:
1 Body Rockin' (Album Edit) 4:23
2 Break It Down 5:45
3 Let The Music Take Control 4:50
4 Can't Get You Out Of My Mind 4:24
5 Melody & The Beat 4:10
6 Breakdance Galaxy 4:05
7 Shining Star 5:09
8 Interlude (Human Beatbox) 1:33
9 Make A Miracle 4:12
10 Stylaz War 5:00
11 Check Your Body 3:38
12 Electro Jam 5:18
13 King Of The Streets 4:03
14 I Am Riffin' 5:17
Отчёт EAC
Exact Audio Copy V0.99 prebeta 5 from 4. May 2009
EAC extraction logfile from 11. March 2010, 12:25
B-Boy Tronik / I Am Your DJ
Used drive : HL-DT-STDVDRAM GSA-4163B Adapter: 0 ID: 1
Read mode : Secure
Utilize accurate stream : Yes
Defeat audio cache : Yes
Make use of C2 pointers : No
Read offset correction : 667
Overread into Lead-In and Lead-Out : No
Fill up missing offset samples with silence : Yes
Delete leading and trailing silent blocks : No
Null samples used in CRC calculations : Yes
Used interface : Native Win32 interface for Win NT & 2000
Used output format : User Defined Encoder
Selected bitrate : 32 kBit/s
Quality : High
Add ID3 tag : No
Command line compressor : C:\Program Files\Exact Audio Copy\FLAC\FLAC.EXE
Additional command line options : -8 -V -T "ARTIST=%a" -T "TITLE=%t" -T "ALBUM=%g" -T "DATE=%y" -T "TRACKNUMBER=%n" -T "GENRE=%m" -T "COMMENT=%e" %s -o %d
TOC of the extracted CD
Track | Start | Length | Start sector | End sector
---------------------------------------------------------
1 | 0:00.00 | 4:21.38 | 0 | 19612
2 | 4:21.38 | 5:44.26 | 19613 | 45438
3 | 10:05.64 | 4:48.41 | 45439 | 67079
4 | 14:54.30 | 4:23.13 | 67080 | 86817
5 | 19:17.43 | 4:08.30 | 86818 | 105447
6 | 23:25.73 | 4:03.64 | 105448 | 123736
7 | 27:29.62 | 5:08.16 | 123737 | 146852
8 | 32:38.03 | 1:32.06 | 146853 | 153758
9 | 34:10.09 | 4:11.17 | 153759 | 172600
10 | 38:21.26 | 4:58.42 | 172601 | 194992
11 | 43:19.68 | 3:37.11 | 194993 | 211278
12 | 46:57.04 | 5:17.14 | 211279 | 235067
13 | 52:14.18 | 4:02.00 | 235068 | 253217
14 | 56:16.18 | 5:15.66 | 253218 | 276908
Range status and errors
Selected range
Filename M:\Music\новая папка\B-Boy Tronik - I Am Your DJ.wav
Peak level 78.2 %
Range quality 100.0 %
Test CRC AFDB48D8
Copy CRC AFDB48D8
Copy OK
No errors occurred
AccurateRip summary
Track 1 not present in database
Track 2 not present in database
Track 3 not present in database
Track 4 not present in database
Track 5 not present in database
Track 6 not present in database
Track 7 not present in database
Track 8 not present in database
Track 9 not present in database
Track 10 not present in database
Track 11 not present in database
Track 12 not present in database
Track 13 not present in database
Track 14 not present in database
None of the tracks are present in the AccurateRip database
End of status report
инфа
Доп. информация: Источник получения релизов: Рип с дисков из собственной коллекции.
Download
Сайт не распространяет и не хранит электронные версии произведений, а лишь предоставляет доступ к создаваемому пользователями каталогу ссылок на торрент-файлы, которые содержат только списки хеш-сумм
Как скачивать? (для скачивания .torrent файлов необходима регистрация)
[Профиль]  [ЛС] 

KETAPH

Стаж: 10 лет 2 месяца

Сообщений: 5

KETAPH · 08-Июн-11 13:37 (спустя 1 год 2 месяца)

Чумовая музяка. Народ подскажите плиз похожих исполнителей.
[Профиль]  [ЛС] 

mr.no

Стаж: 11 лет 4 месяца

Сообщений: 1176

mr.no · 09-Июн-11 14:36 (спустя 1 день)

KETAPH писал(а):
Чумовая музяка. Народ подскажите плиз похожих исполнителей.
добрая часть что выходила на Manifold'e
[Профиль]  [ЛС] 

crash_rider

Стаж: 12 лет 3 месяца

Сообщений: 18

crash_rider · 28-Сен-12 08:45 (спустя 1 год 3 месяца, ред. 28-Сен-12 08:45)

DJ Mitty ток на ютюбе... больше не ма...
Позиционирует себя ток на ютюбе,..
дисков нема музон олд скульный , прикольный!
[Профиль]  [ЛС] 

PEА

Стаж: 9 лет 7 месяцев

Сообщений: 241

PEА · 02-Янв-13 13:06 (спустя 3 месяца 4 дня, ред. 02-Янв-13 13:06)

Любимый трек Clubbin' In The Night! Спасибо за lossless!
[Профиль]  [ЛС] 

Enquwer

Стаж: 8 лет 4 месяца

Сообщений: 7


Enquwer · 17-Янв-13 08:00 (спустя 14 дней)

ааааааааа! ДАВНО искал этого исполнителя! наслаждался Music Instructor, Freestyle Project, Flying Steps! А теперь есть еще и B-Boy Tronik! OLD SCHOOL FOREVER
[Профиль]  [ЛС] 

ser4ik_63

Стаж: 8 лет 6 месяцев

Сообщений: 65


ser4ik_63 · 13-Ноя-15 16:20 (спустя 2 года 9 месяцев)

Спасибо!!! Редкая музыка. Я и в мп3 еле нашел и то в плохом качестве, а здесь FLAC!!!
[Профиль]  [ЛС] 

Syngo

Стаж: 5 лет 1 месяц

Сообщений: 115

Syngo · 21-Июн-18 21:10 (спустя 2 года 7 месяцев, ред. 21-Июн-18 21:10)

KETAPH писал(а):
45499340Чумовая музяка. Народ подскажите плиз похожих исполнителей.
Полностью согласен!!!
СКАЧАЛ, СЛУШАЮ - ДОВОЛЕН!!! НАПРАВЛЕНИЕ ПРИШЛОСЬ ПО ДУШЕ!!! ТО, ЧТО НАДО!!! КАК ЖЕ НАДОЕЛА ДИЧЬ ВСЯКАЯ. ПОЧЕМУ, ТАК МАЛО РАБОТЫ В ЭТОМ НАПРАВЛЕНИИ Freestyle? НАПРАВЛЕНИЕ С БЕСКОНЕЧНЫМ ПОТЕНЦИАЛОМ - ЭТО ТАК ОЧЕВИДНО!!!!
[Профиль]  [ЛС] 

mr.no

Стаж: 11 лет 4 месяца

Сообщений: 1176

mr.no · 22-Июн-18 07:27 (спустя 10 часов)

Syngo писал(а):
КАК ЖЕ НАДОЕЛА ДИЧЬ ВСЯКАЯ. ПОЧЕМУ, ТАК МАЛО РАБОТЫ В ЭТОМ НАПРАВЛЕНИИ Freestyle?
Кто тебе такое сказал? Если ты мало слышал - значит мало интересовался этим направлением. На самом деле это огромный пласт, тут можно ознакомиться с историей жанра (англ. вики). Там только сцен несколько: Miami bass, New York'ский Electro Funk, Favela funk и т.д.
Само же Electro, откуда растут ноги, как известно представляет собой ещё более обширный монолит как музыкальное направление. Другое дело что на торрентах маловато материала для ознакомления, в основном "нью-скул". Но кто ищет, тот находит.
[Профиль]  [ЛС] 
 
Ответить
Loading...
Error